<?xml version="1.0" standalone="no"?>
<!DOCTYPE svg PUBLIC "-//W3C//DTD SVG 1.1//EN" "http://www.w3.org/Graphics/SVG/1.1/DTD/svg11.dtd" >
<svg>
<metadata>
Created by FontForge 20090914 at Thu Nov 29 14:03:00 2012
 By www-data
Copyright (C) 2012 by original authors @ fontello.com
</metadata>
<defs>
<font id="fontello" horiz-adv-x="871" >
  <font-face 
    font-family="fontello"
    font-weight="500"
    font-stretch="normal"
    units-per-em="1000"
    panose-1="0 0 0 0 0 0 0 0 0 0"
    ascent="850"
    descent="-150"
    bbox="13.9514 -99.002 962.996 799.999"
    underline-thickness="50"
    underline-position="-99"
    unicode-range="U+000D-U+F50D"
  />
<missing-glyph horiz-adv-x="364" 
d="M33 0v666h265v-666h-265zM66 33h199v600h-199v-600z" />
    <glyph glyph-name=".notdef" horiz-adv-x="364" 
d="M33 0v666h265v-666h-265zM66 33h199v600h-199v-600z" />
    <glyph glyph-name="NULL" horiz-adv-x="0" 
 />
    <glyph glyph-name="NULL" horiz-adv-x="0" 
 />
    <glyph glyph-name="nonmarkingreturn" unicode="&#xd;" horiz-adv-x="333" 
 />
    <glyph glyph-name="space" unicode=" " horiz-adv-x="250" 
 />
    <glyph glyph-name="uni0275" unicode="&#x275;" horiz-adv-x="610" 
d="M15 526c3.33301 86.667 28.833 153.996 76.5 201.996s115.5 72 203.5 72c86.667 0 158 -20 214 -60c57.333 -41.333 86 -102.666 86 -183.999c0 -42.667 -14 -84 -42 -124c-4.66699 -7.33301 -13.834 -18.166 -27.501 -32.499s-33.834 -30.166 -60.501 -47.499l-46 -30
c-27.333 -23.333 -43.333 -43.333 -48 -60c-2.66699 -6 -4.5 -12.667 -5.5 -20s-1.83301 -15.333 -2.5 -24c0 -9.33301 -5.33301 -14 -16 -14h-128c-10.667 0 -16 4 -16 12c2.66699 64.667 12 106 28 124c8.66699 12 21.167 26 37.5 42s38.5 32 66.5 48l24 14
c14.667 10.667 26 22 34 34c18.667 28.667 28 52 28 70c0 28.667 -8.66699 54.667 -26 78c-9.33301 12.667 -21.666 21.834 -36.999 27.501s-33.666 8.5 -54.999 8.5c-44 0 -75.333 -14.667 -94 -44c-9.33301 -14 -16.333 -28.5 -21 -43.5s-7 -31.167 -7 -48.5h-166z
M293 103.996c30 -0.666992 54.5 -10.668 73.5 -30.001s27.833 -44 26.5 -74c-1.33301 -29.333 -11.833 -53.166 -31.5 -71.499s-44.5 -26.833 -74.5 -25.5c-30 0.666992 -54.5 10.5 -73.5 29.5s-27.833 43.5 -26.5 73.5s11.833 54.167 31.5 72.5s44.5 26.833 74.5 25.5z" />
    <glyph glyph-name="uni2389" unicode="&#x2389;" horiz-adv-x="560" 
d="M545 66c0 -44 -30 -66 -90 -66s-90 22 -90 66v570c0 42.667 30 64 90 64s90 -21.333 90 -64v-570zM195 66c0 -44 -30 -66 -90 -66s-90 22 -90 66v570c0 42.667 30 64 90 64s90 -21.333 90 -64v-570z" />
    <glyph glyph-name="uni23EA" unicode="&#x23ea;" horiz-adv-x="910" 
d="M403 622c14.667 9.33301 27 11 37 5s15 -17.667 15 -35v-482c0 -17.333 -5 -29 -15 -35s-22.333 -4.33301 -37 5l-374 248c-9.33301 6 -14 13.333 -14 22c0 10.667 4.66699 18.667 14 24zM469 350c0 10 4.66699 17.999 14 23.999l360 248c14.667 10 27 11.833 37 5.5
s15 -18.166 15 -35.499v-482c0 -17.333 -5 -29.166 -15 -35.499s-22.333 -4.5 -37 5.5l-360 248c-9.33301 5.33301 -14 12.666 -14 21.999z" />
    <glyph glyph-name="uni25B6" unicode="&#x25b6;" horiz-adv-x="725" 
d="M106 708c0 13.333 6.00098 24 18.001 32c13.333 7.33301 25 7.33301 35 0l623 -359c12 -9.33301 18 -19.666 18 -30.999c0 -12.667 -6 -23.334 -18 -32.001l-623 -357c-5.33301 -3.33301 -11 -5 -17 -5c-10.667 0 -19.334 3.5 -26.001 10.5s-10 15.5 -10 25.5v716z" />
    <glyph glyph-name="uni2630" unicode="&#x2630;" horiz-adv-x="979" 
d="M56 -24c-11.333 0 -20.833 3.66699 -28.5 11s-11.5 16.666 -11.5 27.999v139c0 11.333 3.83301 20.666 11.5 27.999s17.167 11 28.5 11h152c11.333 0 20.666 -3.66699 27.999 -11s11 -16.666 11 -27.999v-139c0 -11.333 -3.66699 -20.666 -11 -27.999
s-16.666 -11 -27.999 -11h-152zM56 272c-11.333 0 -20.835 3.83496 -28.502 11.502s-11.5 17.167 -11.5 28.5v116c0 11.333 3.83301 20.666 11.5 27.999s17.167 11 28.5 11h152c10.667 0 19.834 -3.83301 27.501 -11.5s11.5 -16.834 11.5 -27.501v-116
c0 -11.333 -3.66699 -20.833 -11 -28.5s-16.666 -11.5 -27.999 -11.5h-152zM55.998 546.002c-11.333 0 -20.835 3.83496 -28.502 11.502s-11.5 17.167 -11.5 28.5v140c0 11.333 3.83301 20.666 11.5 27.999s17.167 11 28.5 11h152c10.667 0 19.834 -3.83301 27.501 -11.5
s11.5 -16.834 11.5 -27.501v-140c0 -11.333 -3.66699 -20.833 -11 -28.5s-16.666 -11.5 -27.999 -11.5h-152zM365.996 -23.9961c-10.667 0 -20 3.66699 -28 11s-12 16.666 -12 27.999v139c0 11.333 4 20.666 12 27.999s17.333 11 28 11h559c10.667 0 19.667 -3.66699 27 -11
s11 -16.666 11 -27.999v-139c0 -11.333 -3.66699 -20.666 -11 -27.999s-16.333 -11 -27 -11h-559zM365.996 272.004c-10.667 0 -20 3.83496 -28 11.502s-12 17.167 -12 28.5v116c0 11.333 4 20.666 12 27.999s17.333 11 28 11h559c10 0 18.833 -3.83301 26.5 -11.5
s11.5 -16.834 11.5 -27.501v-116c0 -11.333 -3.66699 -20.833 -11 -28.5s-16.333 -11.5 -27 -11.5h-559zM325.996 726.006c0 11.333 4 20.668 12 28.001s17.333 11 28 11h559c10 0 18.833 -3.83301 26.5 -11.5s11.5 -16.834 11.5 -27.501v-140
c0 -11.333 -3.66699 -20.833 -11 -28.5s-16.333 -11.5 -27 -11.5h-559c-10.667 0 -20 3.83301 -28 11.5s-12 17.167 -12 28.5v140z" />
    <glyph glyph-name="uni2715" unicode="&#x2715;" horiz-adv-x="500" 
d="M467 194c11.333 -12.667 17.165 -27.1641 17.498 -43.4971s-5.5 -30.166 -17.5 -41.499c-11.333 -11.333 -25.666 -17 -42.999 -17s-31.666 5.33301 -42.999 16l-132 152l-132 -152c-11.333 -10.667 -25.666 -16 -42.999 -16s-31.666 5.33301 -42.999 16
c-10.667 11.333 -16 25.666 -16 42.999s5.33301 31.666 16 42.999l138 156l-138 158c-10 11.333 -15.167 25.666 -15.5 42.999s4.83398 31.666 15.501 42.999c11.333 10.667 25.666 16 42.999 16s31.666 -5.33301 42.999 -16l132 -152l132 152
c11.333 10.667 25.666 16 42.999 16s31.666 -5.66699 42.999 -17c12 -11.333 17.833 -25 17.5 -41s-6.16602 -30.667 -17.499 -44l-138 -158z" />
    <glyph glyph-name="uniE715" unicode="&#xe715;" horiz-adv-x="936" 
d="M148 666c89.333 89.333 196 133.997 320 133.997c64 0 121.667 -11.5 173 -34.5s99 -56.167 143 -99.5c43.333 -43.333 76.5 -90.666 99.5 -141.999s34.5 -109.333 34.5 -174c0 -124 -44.667 -230.667 -134 -320c-87.333 -86 -192.666 -129 -315.999 -129
c-60.667 0 -117.834 10.333 -171.501 31s-103.167 53.334 -148.5 98.001c-45.333 45.333 -78.333 94.833 -99 148.5s-31 110.834 -31 171.501c0 124 43.333 229.333 130 316zM528 649.997c0 10.667 -4.66309 20.6689 -13.9961 30.002v5c12.667 6.66699 19 11.667 19 15
c3.33301 3.33301 5 8.33301 5 15v30c-30 6 -53.333 9 -70 9c-148 0 -266.333 -69.333 -355 -208h30c16.667 -20 26.667 -30 30 -30c17.333 -62 35.666 -97.333 54.999 -106l25 -14c10 0 15 8 15 24c0 13.333 -3.33301 23.333 -10 30c0 13.333 1.66699 21.666 5 24.999
c7.33301 14 14 22.333 20 25c7.33301 13.333 12.333 20 15 20l10 -15c9.33301 -19.333 19.333 -31 30 -35v-10c3.33301 -10 5 -16.667 5 -20v-10c0 -4 -1.66699 -6 -5 -6c0 -2.66699 -2.66699 -4 -8 -4h-12c3.33301 0 5 -3.33301 5 -10c1.33301 -3.33301 5 -8 11 -14l9 -26
l15 -25c3.33301 -6.66699 8.33301 -13.334 15 -20.001c9.33301 -19.333 21 -31 35 -35c13.333 -9.33301 31.666 -14 54.999 -14v-21l10 -5c3.33301 0 5 -1.33301 5 -4c14 0 24 1.33301 30 4l6 -4c-4 -14.667 -19.333 -28.334 -46 -41.001l-40 -15v-10
c0 -3.33301 -1 -9.5 -3 -18.5s-3 -16.167 -3 -21.5c-7.33301 -38 -12 -58 -14 -60c16.667 -3.33301 30 -5 40 -5c9.33301 0 22.666 3.33301 39.999 10l40 11c10 -8 18.333 -16.667 25 -26v-15l15 -5v-20l-5 -5l5 -10h15c20 0 31.667 11.667 35 35
c26.667 8.66699 46.667 24 60 46c13.333 17.333 20 40.333 20 69c-3.33301 3.33301 -6.33301 7.5 -9 12.5l-8 15c-2.66699 5 -4.66699 9.66699 -6 14s-2 7.5 -2 9.5c-10 22 -15 35 -15 39c8 -10 18 -15 30 -15h6l24 6l-15 24v6l19 -21l-9 -25l25 16l14 -6
c10.667 4 19.334 14 26.001 30h-10v25l-16 -10l-4 5v5c-10 0 -16.667 1.66699 -20 5c-4 0 -6 3.33301 -6 10v5c-22.667 12.667 -37.334 19 -44.001 19v-30h-5c-17.333 20 -35.666 30 -54.999 30h-20c-7.33301 7.33301 -14 11 -20 11h-10v15l-10 6
c0 2 -0.833008 7.16699 -2.5 15.5s-2.5 14.5 -2.5 18.5c-4 12.667 -9 22.667 -15 30l4 10h-19c-7.33301 23.333 -14 35 -20 35l5 25v20l-15 5c-16.667 0 -25 -8.33301 -25 -25l16 -30c-7.33301 -13.333 -11 -21.666 -11 -24.999c0 -10.667 1.66699 -17.667 5 -21
c-2.66699 -3.33301 -5.83398 -7.83301 -9.50098 -13.5s-5.5 -10.5 -5.5 -14.5v-6l-45 -35c-3.33301 0 -5 3.66699 -5 11v19c0 10 -5 21.667 -15 35l15 -5c9.33301 0 17.666 11.667 24.999 35v20c0 13.333 -1.66699 21.666 -5 24.999c6.66699 0 10 8.33301 10 25
c36.667 6.66699 55 30 55 70c0 9.33301 -4.66699 24 -14 44l-11 11h5c8.66699 -16.667 18.667 -25 30 -25c4 0 9 3.33301 15 10c3.33301 6.66699 5 13.334 5 20.001zM503.004 359.999v20c0 -4 3.66699 -8.66699 11 -14zM572.004 299.999
c17.333 -8 25.999 -14.668 25.999 -20.001c0 -3.33301 -1.66699 -6.66602 -5 -9.99902h-10c-13.333 0 -23.166 -3.33301 -29.499 -10s-11.5 -10 -15.5 -10l-5 5c13.333 0 20 7 20 21v14h-15l-5 5h-5v15c0 6.66699 1.66699 11.667 5 15v-30h20v5v-5h5
c6 0 10.667 1.66699 14 5zM618.003 249.998c-3.33301 -6.66699 -4.99902 -11.666 -4.99902 -14.999v11c-3.33301 3.33301 -5 9.66602 -5 18.999c3.33301 -3.33301 6.66602 -5 9.99902 -5v-10zM738.004 199.999c0 -9.33301 4 -18.3311 12 -26.998s17.333 -13 28 -13l10 -6
c6.66699 0 10 -1.33301 10 -4c-8.66699 30.667 -17 49 -25 55c-5.33301 5.33301 -10.5 10.166 -15.5 14.499s-9.83301 7.83301 -14.5 10.5c0 -6.66699 -1.66699 -13.334 -5 -20.001v-10z" />
    <glyph glyph-name="uniE750" unicode="&#xe750;" 
d="M122 696c34 34 70.999 59.832 110.999 77.499s85 26.5 135 26.5c100 0 181.667 -34.667 245 -104c70 -64 105 -146 105 -246c0 -58 -11.667 -109.667 -35 -155l140 -141c10.667 -11.333 18.334 -23.5 23.001 -36.5s7 -27.167 7 -42.5c0 -30 -11.667 -55 -35 -75
c-20.667 -22.667 -45.667 -34 -75 -34c-15.333 0 -29.5 2.33301 -42.5 7s-25.167 12.334 -36.5 23.001l-141 139c-45.333 -23.333 -97 -35 -155 -35c-101.333 0 -183.333 35 -246 105c-69.333 63.333 -104 145 -104 245c0 50 8.83301 95 26.5 135s43.5 77 77.5 111z
M367.999 199.999c66 0 124 25 174 75c50.667 50.667 76 109 76 175c0 65.333 -25.333 123.333 -76 174s-108.667 76 -174 76c-66 0 -124.333 -25.333 -175 -76c-50 -50 -75 -108 -75 -174c0 -66.667 25 -125 75 -175s108.333 -75 175 -75zM217.999 399.999v100h100v100h100
v-100h100v-100h-100v-100h-100v100h-100z" />
    <glyph glyph-name="uniE751" unicode="&#xe751;" 
d="M122 696c34 34 70.999 59.832 110.999 77.499s85 26.5 135 26.5c100 0 181.667 -34.667 245 -104c70 -64 105 -146 105 -246c0 -58 -11.667 -109.667 -35 -155l140 -141c10.667 -11.333 18.334 -23.5 23.001 -36.5s7 -27.167 7 -42.5c0 -30 -11.667 -55 -35 -75
c-20.667 -22.667 -45.667 -34 -75 -34c-15.333 0 -29.5 2.33301 -42.5 7s-25.167 12.334 -36.5 23.001l-141 139c-45.333 -23.333 -97 -35 -155 -35c-101.333 0 -183.333 35 -246 105c-69.333 63.333 -104 145 -104 245c0 50 8.83301 95 26.5 135s43.5 77 77.5 111z
M192.999 275.999c26.667 -24.667 54.168 -43.499 82.501 -56.499s59.166 -19.5 92.499 -19.5c66 0 124 25 174 75c50.667 50.667 76 109 76 175c0 33.333 -6.5 64.166 -19.5 92.499s-31.833 55.833 -56.5 82.5c-22.667 24 -48.167 42.5 -76.5 55.5s-60.833 19.5 -97.5 19.5
c-66 0 -124.333 -25.333 -175 -76c-50 -50 -75 -108 -75 -174c0 -36.667 6.5 -69.167 19.5 -97.5s31.5 -53.833 55.5 -76.5zM218 400v100h300v-100h-300z" />
    <glyph glyph-name="uniE75B" unicode="&#xe75b;" horiz-adv-x="636" 
d="M18 700c0 33.333 16.668 50 50.001 50h500c33.333 0 50 -16.667 50 -50v-700c0 -15.333 -6.66699 -23 -20 -23c-8 0 -17.167 2.5 -27.5 7.5s-21.333 11.833 -33 20.5s-23.5 19 -35.5 31s-23.333 25 -34 39l-74 75c-30 20 -55.333 30 -76 30s-46 -10 -76 -30l-30 -30
l-25.5 -24.5c-7.66699 -7 -13.834 -13.833 -18.501 -20.5l-20 -23c-12.667 -14 -22 -23 -28 -27l-23 -21c-25.333 -18 -45 -27 -59 -27c-5.33301 0 -10 2.33301 -14 7s-6 10 -6 16v700z" />
    <glyph glyph-name="uniE75C" unicode="&#xe75c;" horiz-adv-x="636" 
d="M147 440h341v136h-341v-136zM18 700c0 33.333 16.668 50 50.001 50h500c33.333 0 50 -16.667 50 -50v-700c0 -15.333 -6.66699 -23 -20 -23c-8 0 -17.167 2.5 -27.5 7.5s-21.333 11.833 -33 20.5s-23.5 19 -35.5 31s-23.333 25 -34 39l-74 75c-30 20 -55.333 30 -76 30
s-46 -10 -76 -30l-30 -30l-25.5 -24.5c-7.66699 -7 -13.834 -13.833 -18.501 -20.5l-20 -23c-12.667 -14 -22 -23 -28 -27l-23 -21c-25.333 -18 -45 -27 -59 -27c-5.33301 0 -10 2.33301 -14 7s-6 10 -6 16v700z" />
    <glyph glyph-name="uniE75D" unicode="&#xe75d;" horiz-adv-x="371" 
d="M257 626c10.667 10.667 23.666 15.999 38.999 15.999c16.667 0 30.334 -5.33301 41.001 -16c26 -25.333 26 -52 0 -80l-186 -196l186 -194c26 -28 26 -54.667 0 -80c-10.667 -10.667 -24 -16 -40 -16s-29.333 5.33301 -40 16l-226 236
c-10.667 10.667 -16 23.334 -16 38.001c0 16 5.33301 29.333 16 40l57 59l70.5 73z" />
    <glyph glyph-name="uniE75E" unicode="&#xe75e;" horiz-adv-x="370" 
d="M339 390c10.667 -10.667 15.999 -23.999 15.999 -39.999c0 -14.667 -5.33301 -27.334 -16 -38.001l-226 -236c-10.667 -10.667 -24 -16 -40 -16s-29.333 5.33301 -40 16c-12 12 -18.333 25 -19 39s5.66602 27.667 18.999 41l186 194l-186 196
c-13.333 13.333 -19.666 27 -18.999 41s7 27 19 39c10.667 10.667 24.334 16 41.001 16c15.333 0 28.333 -5.33301 39 -16z" />
    <glyph glyph-name="uniE78D" unicode="&#xe78d;" horiz-adv-x="950" 
d="M235 350c0 -29.333 -10.998 -55.001 -32.998 -77.001c-21.333 -22 -47 -33 -77 -33s-56 11 -78 33c-21.333 22.667 -32 48.334 -32 77.001c0 15.333 2.83301 29.666 8.5 42.999s13.5 25 23.5 35s21.667 17.833 35 23.5s27.666 8.5 42.999 8.5
s29.666 -2.83301 42.999 -8.5s25 -13.5 35 -23.5s17.833 -21.667 23.5 -35s8.5 -27.666 8.5 -42.999zM585.002 349.999c0 -29.333 -11.3301 -55 -33.9971 -77c-22 -22 -47.333 -33 -76 -33s-54.334 11 -77.001 33c-22 22 -33 47.667 -33 77
c0 15.333 2.83301 29.666 8.5 42.999s13.5 25 23.5 35s21.667 17.833 35 23.5s27.666 8.5 42.999 8.5s29.666 -2.83301 42.999 -8.5s25 -13.5 35 -23.5s17.833 -21.667 23.5 -35s8.5 -27.666 8.5 -42.999zM935.005 349.999c0 -29.333 -10.998 -55.001 -32.998 -77.001
c-21.333 -22 -47 -33 -77 -33s-56 11 -78 33c-21.333 22.667 -32 48.334 -32 77.001c0 15.333 2.83301 29.666 8.5 42.999s13.5 25 23.5 35s21.667 17.833 35 23.5s27.666 8.5 42.999 8.5s29.666 -2.83301 42.999 -8.5s25 -13.5 35 -23.5s17.833 -21.667 23.5 -35
s8.5 -27.666 8.5 -42.999z" />
    <glyph glyph-name="uniF4E5" unicode="&#xf4e5;" horiz-adv-x="979" 
d="M833 331c13.333 0 20 -6.66699 20 -20v-315c0 -13.333 -6.66699 -20 -20 -20h-797c-13.333 0 -20 6.66699 -20 20v315c0 5.33301 1.83301 10 5.5 14s8.5 6 14.5 6h118c13.333 0 20 -6.66699 20 -20v-178h522v178c0 5.33301 1.83301 10 5.5 14s8.5 6 14.5 6h117zM144 461
c2 5.33301 8.66602 7.99902 19.999 7.99902h158v257c0 11.333 3.66699 20.666 11 27.999s16.666 11 27.999 11h158c10.667 0 20 -3.66699 28 -11s12 -16.666 12 -27.999v-257h158c10.667 0 16.834 -2.83301 18.501 -8.5s-1.16602 -12.167 -8.49902 -19.5l-259 -261
c-7.33301 -8 -16 -12.667 -26 -14s-20.333 3.33398 -31 14.001l-259 261c-7.33301 7.33301 -10 14 -8 20z" />
    <glyph glyph-name="uniF50D" unicode="&#xf50d;" horiz-adv-x="852" 
d="M547 133c-60 -38 -123 -56.999 -189 -56.999c-94 0 -174.667 33.333 -242 100c-66.667 66.667 -100 147.334 -100 242.001c0 95.333 33.333 176 100 242c34 33.333 71 58.5 111 75.5s83.667 25.5 131 25.5c93.333 0 173.666 -33.667 240.999 -101
c67.333 -66.667 101 -147.334 101 -242.001c0 -66.667 -19 -129.334 -57 -188.001l185 -184c6 -6 9 -14.333 9 -25c0 -10 -11 -26 -33 -48c-21.333 -22 -37.666 -33 -48.999 -33c-9.33301 0 -17.333 3.33301 -24 10zM153 418.001c0 -46 11.5 -84.999 34.5 -116.999
s53.5 -56 91.5 -72c24 -10.667 50.333 -16 79 -16c44.667 0 83.334 11.833 116.001 35.5s57 53.5 73 89.5c6 13.333 10.167 26.666 12.5 39.999s3.5 26.666 3.5 39.999c0 28 -5.16699 53.833 -15.5 77.5s-25.5 46.167 -45.5 67.5c-40 40.667 -88 61 -144 61
c-44.667 0 -83.334 -12 -116.001 -36s-56.667 -54.333 -72 -91c-11.333 -25.333 -17 -51.666 -17 -78.999zM229 418.002c0 28.667 7.5 53.333 22.5 74s33.5 35.667 55.5 45c18.667 7.33301 35.667 11 51 11c8 0 14.167 -2.66699 18.5 -8s6.5 -11.333 6.5 -18
s-2.16699 -12.667 -6.5 -18s-10.5 -8 -18.5 -8c-22 0 -40.5 -7.5 -55.5 -22.5s-22.5 -33.5 -22.5 -55.5c0 -6.66699 -2.5 -12.5 -7.5 -17.5s-10.833 -7.5 -17.5 -7.5c-8 0 -14.333 2.5 -19 7.5s-7 10.833 -7 17.5z" />
  </font>
</defs>
</svg>
